<?xml version="1.0" standalone="no"?>
<!DOCTYPE svg PUBLIC "-//W3C//DTD SVG 1.1//EN" "http://www.w3.org/Graphics/SVG/1.1/DTD/svg11.dtd">
<svg xmlns="http://www.w3.org/2000/svg">
<metadata>Generated by Fontastic.me</metadata>
<defs>
<font id="bpsc" horiz-adv-x="512">
<font-face font-family="bpsc" units-per-em="512" ascent="480" descent="-32"/>
<missing-glyph horiz-adv-x="512" />

<glyph glyph-name="bike" unicode="&#97;" d="M350 275c-5 0-9-1-14-2-3 11-6 19-6 21-1 3 0 7 3 7 3 0 16 1 21 1 6 0 10 6 10 9 0 2 0 20 0 21 0 2-4 2-4 0 0-2 0-17 0-20 0-6-8-7-11-7-2 0-10-1-15-1-5 0-9 2-11 7-1 6-2 6-2 14 0 8-3 21-7 22-3 1-15-1-19-1-3 0-7 0-10 0-2 0-2-6 0-6 2 0 8 2 12 2 3 0 4-4 6-7 1-3 6-15 6-15l2-6c0 0-3-6-4-8-1-2-30-49-33-53-2-4-5-12-14-17-8-5-15-4-26-4l-30 82c7 1 14 2 18 3 0 4-4 8-9 7-4 0-8-1-14-1-4 0-7 1-8 2-3 1-6 0-10 0-6-2-6-5-6-9 1 0 1-1 5-2 1 0 1 0 2 0-1-3 0-7 2-8 3-2 7 0 9 1 1 0 7-1 7-1l11-30c0 0-3-1-6-2-4-1-9-6-11-9 0 0 0 0-1 0-9 6-20 10-32 10-30 0-54-24-54-55 0-30 24-54 54-54 30 0 54 23 55 52 1-1 2-2 3-7 2-8 10-14 18-14 7 0 11 5 13 7 1 0 8-2 8-2 0-1 0-4 0-5 0-1 1-2 3-2 1 0 6 0 7 0 2 0 2 1 2 2 0 1 0 1 0 4 0 2-2 3-4 3-2 0-13 5-13 5 0 1 0 2 0 7 12 2 22 9 28 20 1 3 35 55 36 56 0 1 3 3 3 1 0-1 3-11 8-23-20-9-33-28-33-50 0-31 25-55 55-55 30 0 54 24 54 55 1 30-24 55-54 55z m-146-44l-32-1c0 0 11 13 18 22 7-5 11-13 14-21z m-42-54c-24 0-43 19-43 43 0 24 19 43 43 43 9 0 17-3 24-8-8-10-21-24-24-28 0 0 0 0 0 0-4 0-7-3-7-7 0-3 3-6 7-6 3 0 6 2 6 5 5 0 25-1 37-1-1-23-20-41-43-41z m54 54c-3 12-9 23-18 30 2 3 6 7 9 8 4 1 6 1 6 1l14-39z m134-54c-24 0-43 19-43 43 0 17 10 32 25 39 6-16 11-32 13-35-1-1-1-2-1-4 0-3 3-6 7-6 3 0 6 3 6 6 0 4-3 7-6 7-2 4-6 19-11 35 3 1 7 1 11 1 23 0 43-19 43-43-1-24-20-43-44-43z"/>
<glyph glyph-name="bikeline" unicode="&#98;" d="M372 221c-10 9-22 14-33 17-4 1-7 1-11 1-9 1-19 0-27-4l-15 12 1 2c1 0 3 1 5 1 5 1 5 2 7 3 1 1-1 1-1 1l0 0-28 0c-5 0-2-2-1-3 1 0 4-1 9-2 1 0 1 0 2 0l0-1-53 0 7 8-3 3 3 1 11 0 0 2-12 0-8-4 1 0 2-2-16-20c-7 3-16 4-24 3-4 0-7 0-11-1-11-3-23-8-33-17-10-9-16-20-15-30 1-18 14-29 40-28 5 0 10 0 14 1 13 4 25 10 34 19 9 9 14 20 13 30-1 10-6 17-14 21l4 4 40-39c0-1-1-1-1-2 0-2 2-4 5-5l3-13-2 0 0-3 10 0 0 3-4 0-2 13c2 0 4 1 4 3l16 3c2-6 6-11 10-15 9-9 21-16 34-19 5-1 9-2 14-2 26-1 40 10 41 29 0 10-6 21-16 30z m-150-7c1-17-21-35-43-40-4-1-8-1-12-1-16 0-26 9-26 19-1 17 18 36 40 41 3 1 7 1 10 1 6 0 12-1 17-3 0-1-7-13-19-19-1 1-2 1-3 1-4-1-7-3-7-5 0-3 3-5 7-4 3 0 6 2 6 5 0 0 0 0 0 1 11 6 18 16 20 19 6-3 9-8 10-15z m43-6l-1 6 2 0 0 3-9 0 0-3 3 0 1-6-37 36 0 0 55 0z m21 5c0-2 0-5 0-8l-14-1 12 37 12-10c-6-4-10-10-10-18z m9 1c0 6 3 10 7 13l22-17-29-3c0 2-1 4 0 7z m54-41c-3 0-7 0-11 1-16 4-32 14-40 26l30 4c1 0 1 0 3 0 3-1 7 0 7 3 0 3-3 5-7 6 0 0-1 0-1 0l-23 17c6 3 13 4 19 4 3 0 7-1 10-1 22-6 40-24 40-42-1-10-11-18-27-18z m130 31l-218 145-1 0 219-183z m-228 145l-218-145 0-38 219 183z m0-56l-3-12 16 0-3 12 10 0-15 12-15-12z"/>
<glyph glyph-name="city" unicode="&#99;" d="M403 127c-6 5-23 9-47 12l0 98-12 0 0 9-26 0 0-9-19 0 0-93c-3 0-6 0-10 0l0 194-14-9 0 10-10 0 0 42-3 0 0-42-19 0 0-28-16-10 0-157c-4 0-7 0-10 0l0 123-23 0 0 11-30 0 0-11-9 0 0-127 5 0c-26-4-45-8-52-13z m-63 64l0 10 8 0 0-10z m8-9l0-10-8 0 0 10z m-24 28l0 10 8 0 0-10z m8-9l0-10-8 0 0 10z m-8-19l8 0 0-10-8 0z m24 28l-8 0 0 10 8 0z m-40 10l8 0 0-10-8 0z m0-19l8 0 0-10-8 0z m0-19l8 0 0-10-8 0z m-126 11l0 11 9 0 0-11z m9-11l0-11-9 0 0 11z m-9 33l0 11 9 0 0-11z m0 22l0 11 9 0 0-11z m-17-22l0 11 9 0 0-11z m9-11l0-11-9 0 0 11z m-9 33l0 11 9 0 0-11z m0-55l9 0 0-11-9 0z m33 66l9 0 0-11-9 0z m0-22l9 0 0-11-9 0z m0-22l9 0 0-11-9 0z m0-22l9 0 0-11-9 0z m71 32l0 9 11 0 0-9z m11-9l0-9-11 0 0 9z m-11 27l0 8 11 0 0-8z m0 18l0 8 11 0 0-8z m0 17l0 9 11 0 0-9z m-16-35l0 8 11 0 0-8z m11-9l0-9-11 0 0 9z m-11 27l0 8 11 0 0-8z m0 17l0 9 11 0 0-9z m0 18l0 9 11 0 0-9z m0-80l11 0 0-9-11 0z m27 80l-11 0 0 9 11 0z m-44 9l11 0 0-9-11 0z m0-18l11 0 0-9-11 0z m0-18l11 0 0-8-11 0z m0-18l11 0 0-8-11 0z m0-17l11 0 0-9-11 0z m0-18l11 0 0-9-11 0z"/>
<glyph glyph-name="nav-close" unicode="&#100;" d="M414 142l-113 114 113 114-44 44-114-113-114 113-44-44 113-114-113-114 44-44 114 113 114-113z"/>
<glyph glyph-name="facebook" unicode="&#101;" d="M224 113l57 0 0 139 38 0 6 48-44 0 0 24c0 12 2 19 19 19l24 0 0 48-38 0c-46 0-63-23-63-62l0-29-29 0 0-49 29 0 0-138z m36-117c-142 0-256 115-256 256 0 142 114 256 256 256 141 0 256-114 256-256 0-141-115-256-256-256z"/>
<glyph glyph-name="linkedin" unicode="&#102;" d="M388 144l0 90c0 48-26 70-59 70-28 0-40-15-47-26l0 22-52 0c1-14 0-156 0-156l52 0 0 88c0 4 0 9 2 13 3 9 12 19 26 19 19 0 26-15 26-36l0-83z m-212 178c18 0 29 12 29 26 0 16-12 27-29 27-18 0-29-11-29-27 0-15 10-26 29-26z m84-299c-127 0-229 102-229 229 0 127 102 229 229 229 127 0 229-102 229-229 0-127-102-229-229-229z m-58 121l0 156-52 0 0-156z"/>
<glyph glyph-name="news-all" unicode="&#103;" d="M77 435l85 0 0-85-85 0z m0-136l85 0 0-86-85 0z m0-137l85 0 0-85-85 0z m136 273l86 0 0-85-86 0z m0-136l86 0 0-86-86 0z m0-137l86 0 0-85-86 0z m137 273l85 0 0-85-85 0z m0-136l85 0 0-86-85 0z m0-137l85 0 0-85-85 0z"/>
<glyph glyph-name="news-photo" unicode="&#104;" d="M444 55l-376 0c-22 0-39 15-42 35l0 215c1 24 20 40 42 40l376 0c24 0 42-19 42-43l0-206c0-23-18-41-42-41z m-389 41c0-7 6-11 13-11l376 0c7 0 13 5 13 14l0 203c0 7-6 14-13 14l-376 0c-7 0-12-5-13-12z m285 269l-154 0c-10 0-17 9-17 17l0 57c0 10 8 17 17 17l154 0c10 0 17-9 17-17l0-57c0-10-9-17-17-17z m-144 29l132 0 0 34-132 0z m-56-133c0 14-12 26-27 26-15 0-28-12-28-26 0-14 13-25 28-25 15 0 27 11 27 25z m200-61c0 45-38 82-84 82-46 0-84-37-84-82 0-46 38-82 84-82 46 0 84 36 84 82z"/>
<glyph glyph-name="news-pressroom" unicode="&#105;" d="M90 476l0-111-73 0 0-273c0-32 26-58 58-58l362 0c32 0 58 26 58 58l0 384z m367-382c0-12-10-22-22-22l-360 0c-12 0-22 10-22 22l0 235 37 0 0-184c0-10 9-19 19-19 10 0 19 9 19 19l0 295 331 0 0-346z m-293 309l258 0 0-74-258 0z m0-109l111 0 0-19-111 0z m147 0l111 0 0-19-111 0z m-147-50l111 0 0-19-111 0z m147 0l111 0 0-19-111 0z m-147-49l111 0 0-19-111 0z m147 0l111 0 0-19-111 0z m-147-50l111 0 0-19-111 0z m147 0l111 0 0-19-111 0z"/>
<glyph glyph-name="news-video" unicode="&#106;" d="M304 251l-99 66 0-133z m116 210c13 0 25-12 25-26l0-367c0-13-12-25-25-25l-336 0c-14 0-26 12-26 25l0 367c0 14 10 26 26 26l336 0m0 29l-336 0c-31 0-55-26-55-57l0-365c0-30 24-56 55-56l336 0c31 0 54 26 54 56l0 367c0 29-25 55-54 55z m-328-384l45 0 0-31-45 0z m0 80l45 0 0-31-45 0z m0 79l45 0 0-31-45 0z m0 80l45 0 0-31-45 0z m0 80l45 0 0-31-45 0z m268-319l44 0 0-31-44 0z m0 80l44 0 0-31-44 0z m0 79l44 0 0-31-44 0z m0 80l44 0 0-31-44 0z m0 80l44 0 0-31-44 0z"/>
<glyph glyph-name="nav-plus" unicode="&#107;" d="M405 284l-128 0 0 128c0 13-8 21-21 21-13 0-21-8-21-21l0-128-128 0c-13 0-22-9-22-22 0-12 9-21 22-21l128 0 0-128c0-13 8-21 21-21 13 0 21 8 21 21l0 128 128 0c13 0 22 9 22 21 0 13-11 22-22 22z"/>
<glyph glyph-name="ride" unicode="&#108;" d="M380 206c-6 0-13-1-18-2-5 14-8 25-8 28-2 4 0 11 4 11 5 0 21 0 28 1 8 0 13 8 13 12 0 2 0 26 0 28 0 2-5 2-5 0 0-2 0-22 0-26 0-8-11-9-15-9-4 0-15 0-21 0-6 0-12 1-13 8-1 8-4 9-4 19 0 9-3 26-8 28-3 1-9 0-14 0l-57 79c-8 14-27 12-34 1l-60-94c-3-5-3-10-2-16-3 0-5 0-9-1-8-1-8-7-8-11 1-1 2-1 7-2 0 0 1 0 2-2 0-2 0-8 4-9 4-3 10 0 11 1 3 1 10-1 10-1l14-41c0 0-3-1-7-2-5-1-12-7-14-11-13 9-27 13-43 13-40 0-73-32-73-73 0-40 33-73 73-73 39 0 71 31 73 70 1-2 2-4 4-10 2-11 13-18 23-18 10 0 14 6 18 9l10-3c0-2 0-4 0-5 0-1 1-4 4-4 2 0 8 0 9 0 3 0 3 1 3 3 0 1 0 2 0 4 0 0 0 0 0 2 3 3 5 8 3 13l-2 17c5 5 10 10 13 16 2 4 47 73 48 74 1 2 4 4 5 2 0-2 5-15 11-31-26-11-44-36-44-67 0-40 33-73 73-73 40 0 73 33 73 73-4 40-36 72-77 72z m-193-58l-43 0c0 0 14 17 24 29 10-8 16-17 19-29z m-55-71c-32 0-58 25-58 57 0 32 26 57 58 57 12 0 23-3 31-9-11-14-28-33-31-38-5 0-9-4-9-9 0-5 4-8 9-8 5 0 8 3 8 7 6 0 33-1 49-2-1-31-27-55-57-55z m70 71c-3 15-12 30-24 40 2 3 9 8 12 9 5 2 7 2 7 2l20-53z m25 1l-36 97 20-14 23-17 10-66c-5 0-11 0-17 0z m97 97c-1-2-40-64-44-69-2-4-4-9-8-14l-10 70c-1 7-16 21-16 21l-34 29 38 60 27-31c7-6 8-12 14-15 0-2 2-3 3-3 2 0 11 2 14 2 5 0 7-5 9-8 2-4 8-20 8-20l3-8c2-2-3-10-4-14z m56-169c-31 0-57 25-57 57 0 23 13 43 33 53 7-21 15-42 17-47-1-1-1-2-1-5 0-5 3-8 8-8 5 0 9 3 9 8 0 5-4 9-9 9-1 5-8 25-14 46 5 1 9 3 14 3 32 0 58-26 58-58 0-33-26-58-58-58z m-100 322c35 13 14 63-19 50-35-14-15-63 19-50z"/>
<glyph glyph-name="safe" unicode="&#109;" d="M395 400c-1 0-1 0-2 0-46 0-120 33-128 36-3 2-7 3-9 3-2 0-6-1-9-3-8-3-82-36-128-36-1 0-1 0-2 0-11 0-21-10-21-21 0-43 8-260 154-305 2-1 4-1 6-1 2 0 4 0 6 1 146 45 154 262 154 305 0 12-9 21-21 21z m-138-311c0 0-1 0-1 0 0 0-1 0-1 0-138 43-143 254-143 290 0 3 3 5 5 5 1 0 1 0 2 0 48 0 122 33 136 38 1 0 1 0 2 0 1 0 1 0 3 0 13-6 87-38 135-38 1 0 1 0 2 0 3 0 5-2 5-5-2-36-7-247-145-290z m-138 288c0-19 3-67 15-120l122 0 0 157c-17-7-88-37-137-37z m137-279c32 9 59 30 80 60 19 26 32 59 42 97 0 1 0 1 0 2l-122 0z"/>
<glyph glyph-name="station" unicode="&#110;" d="M403 164l-4 71 2 0 0 7-22 0 0-7 3 0-4-71-16 0-6 190-34 0-5-190-22 0-4 71 2 0 0 7-21 0 0-7 2 0-4-71-27 0-4 71 2 0 0 7-21 0 0-7 2 0-4-71-27 0-4 71 3 0 0 7-22 0 0-7 2 0-4-71-27 0-3 71 2 0 0 7-22 0 0-7 3 0-5-71-18 0 0-6 320 0 0 6z m-75 148l22 0 0-15-22 0z m54-126l2 49 13 0 2-49-6 0 0-22-6 0 0 22z m-108 0l2 49 13 0 2-49-5 0 0-22-7 0 0 22z m-52 0l2 49 13 0 2-49-6 0 0-22-6 0 0 22z m-52 0l2 49 13 0 2-49-6 0 0-22-6 0 0 22z m-52 0l2 49 13 0 3-49-6 0 0-22-6 0 0 22z"/>
<glyph glyph-name="strong" unicode="&#111;" d="M132 262l248 0 0-29-248 0z m278 83l-10 0c-6 0-11-5-11-11l0-173c0-6 5-11 11-11l10 0c6 0 11 5 11 11l0 173c-2 6-7 11-11 11z m46-23l-10 0c-6 0-11-5-11-11l0-127c0-6 5-11 11-11l10 0c6 0 11 5 11 11l0 127c-1 6-5 11-11 11z m45-31l-10 0c-6 0-11-5-11-11l0-64c0-6 5-11 11-11l10 0c6 0 11 5 11 11l0 64c0 6-5 11-11 11z m-389 54l-10 0c-4 0-9-5-9-11l0-173c0-6 5-11 11-11l9 0c6 0 11 5 11 11l0 173c-2 6-6 11-12 11z m-46-23l-10 0c-6 0-11-5-11-11l0-127c0-6 5-11 11-11l10 0c6 0 11 5 11 11l0 127c-1 6-6 11-11 11z m-46-31l-10 0c-5 0-10-5-10-11l0-64c0-6 5-11 11-11l10 0c6 0 11 5 11 11l0 64c-3 6-6 11-12 11z"/>
<glyph glyph-name="nav-switch" unicode="&#112;" d="M378 185c-6-10-14-20-22-29-55-56-143-56-198 0-16 15-26 33-34 51l39 0-70 90-36-45-37-43 35 0c8-36 28-71 55-99 81-80 213-80 294 0 21 22 37 50 49 77l-75 0z m77 132c-10 32-28 61-51 85-81 80-213 80-294 0-19-20-33-42-43-63l77 0c4 6 8 12 14 17 55 56 143 56 198 0 12-11 20-23 28-37l-35 0 70-91 36 46 37 43z"/>
<glyph glyph-name="time" unicode="&#113;" d="M256 512c-141 0-256-115-256-256 0-141 115-256 256-256 141 0 256 115 256 256 0 141-115 256-256 256z m0-485c-126 0-229 103-229 229 0 126 103 229 229 229 126 0 229-103 229-229 0-126-103-229-229-229z m15 248l0 164c0 8-7 14-15 14-8 0-15-6-15-14l0-164c-5-4-8-10-9-18l-91-64c-6-4-8-12-4-18l2-3c4-5 12-7 19-3l91 64c2-1 4-1 6-1 14 0 24 10 24 23 1 8-3 15-8 20z"/>
<glyph glyph-name="twitter" unicode="&#114;" d="M256 512c-142 0-256-114-256-256 0-142 114-256 256-256 142 0 256 114 256 256 0 142-114 256-256 256z m107-198c0-3 0-6 0-8 0-80-57-172-160-172-32 0-62 11-87 28 6-1 10-1 14-1 26 0 50 10 69 26-24 0-44 17-52 41 3-1 8-1 11-1 5 0 11 1 15 2-26 7-45 31-45 60l0 1c7-4 16-7 26-7-15 10-25 28-25 50 0 12 2 22 8 31 27-37 69-61 116-63-1 4-1 9-1 14 0 34 25 60 56 60 16 0 30-7 41-19 14 3 25 9 36 15-4-14-13-25-24-33 10 1 22 4 32 10-8-13-18-24-30-34z"/>
<glyph glyph-name="university" unicode="&#115;" d="M259 329c-2 2-5 2-8 0l-44-29 96 0z m48-43l4 11-111 0 5-11z m97-100l0 83-99 0 0 3 101 0 5 11-312 0 5-11 102 0 0 1 0-4-100 0 0-83-9 0 0-6 121 0 0 5 21 0 0-5 34 0 0 5 19 0 0-5 121 0 0 6z m-265 11l-17 0 0 25 17 0z m0 34l-17 0 0 25 17 0z m25-34l-18 0 0 25 18 0z m0 34l-18 0 0 25 18 0z m24-34l-17 0 0 25 17 0z m0 34l-17 0 0 25 17 0z m52-34l-18 0 0 25 18 0z m0 36l-18 0 0 40 18 0z m24-36l-17 0 0 25 17 0z m0 36l-17 0 0 40 17 0z m25-36l-18 0 0 25 18 0z m0 36l-18 0 0 40 18 0z m50-36l-17 0 0 25 17 0z m0 34l-17 0 0 25 17 0z m25-34l-18 0 0 25 18 0z m0 34l-18 0 0 25 18 0z m25-34l-18 0 0 25 18 0z m0 34l-18 0 0 25 18 0z"/>
<glyph glyph-name="down" unicode="&#116;" d="M256 143l-198 198 19 19 179-180 179 180 19-19z"/>
</font>
</defs>
</svg>
